肥女孩/肥妹有情天 Phat.Girlz.2006.720p.WEB-DL.DD5.1.H264-FGT 2.99GB

作者:高清资源发布员 · 发布时间:2015-06-10 · 阅读 4 次 · 回复 0 次 支持(0) 收藏(0) 回复
108
✔资源类型:WEB-720P   ✔电影年份:2006   ✔电影地区:欧美   ✔电影分类:喜剧   ✔字幕类型:✔标签类型: 

4 ~  _5 c, \" q
8 K* W( M! x' m  }4 [$ T* D译  名 肥女孩/肥妹有情天
- T( |$ W3 X: Q+ @片  名 Phat Girlz4 u* t. f5 M1 K+ v
年  代 2006
1 }- y- D. \' X8 F国  家 美国
! l5 Y! {9 b& m; m+ l# s8 b类  别 喜剧
. D( O2 e- k" \: t- Y语  言 英语
: b' ]1 j+ }6 T- @  R( T# R+ J上映日期 2006-04-07
6 o8 v7 s9 u, S; {IMDb评分  2.9/10 from 8,180 users
  n" b" q6 ]1 G$ E9 Q# BIMDb链接  http://www.imdb.com/title/tt0490196/
: w9 n  U- Y* @% k& d/ A+ W豆瓣评分 6.8/10 from 296 users
2 q' @8 `0 y+ r7 @, U% u8 U豆瓣链接 http://movie.douban.com/subject/1763863/
+ m: T( r4 I% j片  长 USA: 99 分钟/Argentina: 99 分钟) M" _: p$ Q  M+ g/ `
导  演 内盖斯特·里科7 b' r8 M) |! s! q. @& J4 l" u) Q9 b" U
主  演 埃里克·罗伯茨 Eric Roberts
9 a2 ?$ L6 l6 r/ X! b      Jack Noseworthy 古德费伊
# s' [' q+ Z8 V% D/ b7 H简  介3 ^! Z& S2 C1 N6 l7 c8 k( E
  首先要声明一点,站在我们眼前的大块头肥妞贾兹敏·比特摩尔可没披挂什么橡胶皮囊,她是个货真价实的肥妹有情天,虽然她在人前一副“性感肥妞”代言人的派头,可心里压根就不相信是因为脂肪而美丽。
# z# F7 K1 {8 I* \; W  u# S  贾斯敏与同病相怜的挚交斯特西坚信三件事:她们都不满足于在布鲁姆菲尔德女性时尚用品店的店员生活;她们憎恨苗条女孩儿;她们需要男人,尽管两人对此不抱希望。贾斯敏有个梦想,就是成为时尚设计师,专为肥妞们设计服装……
: s- d7 {" ?* P( g& F1 `Video8 F+ q4 A! Y2 t4 W. z5 J# d* i
ID                                       : 1
9 `' s6 h3 u2 fFormat                                   : AVC3 T, D3 a! \. ]1 {% t1 G" Q
Format/Info                              : Advanced Video Codec
2 h, x( |" s6 c/ E4 B- |' }5 B8 O2 ]Format profile                           : [email protected]1 P4 _$ r: S7 i& T1 j% k/ h5 C3 d- ^0 i: Q/ h
Format settings, CABAC                   : No% c8 ^) m4 k# R
Format settings, ReFrames                : 2 frames9 k6 M; z/ B3 I+ x: N2 q) i
Codec ID                                 : V_MPEG4/ISO/AVC
9 t2 U4 ~) a; j+ I3 P3 t- s* [2 E& ADuration                                 : 1h 38mn' u  K9 V. X/ p' s2 U3 T* P; s9 x5 l
Bit rate                                 : 3 885 Kbps9 }4 |2 i, |8 ?$ [* ?& e
Width                                    : 1 280 pixels
% e1 w0 x/ c8 K6 @) n. f0 M# yHeight                                   : 692 pixels
4 m% V4 j; E  E  z( r5 D6 g2 QDisplay aspect ratio                     : 1.85:1: ]5 H) B" |* F
Frame rate mode                          : Constant8 m3 R: p+ D$ Z6 c8 N0 V8 ]2 g6 r
Frame rate                               : 23.976 fps' l* F4 |9 s2 A+ s7 h. W
Color space                              : YUV
2 ]4 J# O+ Q5 `7 m9 I- I0 GChroma subsampling                       : 4:2:0
9 |0 V' |2 {! H/ m9 R; O3 @Bit depth                                : 8 bits
  O) K! s: ]* T1 dScan type                                : Progressive
% L0 D* n7 R9 YBits/(Pixel*Frame)                       : 0.183
6 S+ i: i- @( \' \. T+ O" H5 h$ eStream size                              : 2.67 GiB (89%); w! k3 h% q, D+ P4 W
Title                                    : Phat.Girlz.2006.720p.WEB-DL.DD5.1.H264-FGT* R! O2 F% X4 V8 q
Language                                 : English
! ^" @) {$ W( n6 G" ~2 v3 G' VDefault                                  : Yes9 E$ R* G2 q7 V* P& r
Forced                                   : No* U9 }  u+ q. i9 {2 L+ l6 L
Color range                              : Limited) ~' ?$ r( T) @  k2 o
Color primaries                          : BT.709( I7 A7 d  d- z/ c
Transfer characteristics                 : BT.7090 {0 U" y# p* A. _. H1 L
Matrix coefficients                      : BT.709
2 E# ]/ l8 o9 G# w4 S" W/ {Audio
& p9 B$ T3 }) v$ N) D3 TID                                       : 20 H0 x( {6 [- X" G. q2 j1 a
Format                                   : AC-3# j5 L' K) P/ M% M1 j! E, Y
Format/Info                              : Audio Coding 3
% v7 J3 R# [. N4 g# e5 \# PMode extension                           : CM (complete main)
" _# p' Z: l% LFormat settings, Endianness              : Big) j% ?, i- X+ U/ X1 I& c% h
Codec ID                                 : A_AC3
) d; D9 t* P3 XDuration                                 : 1h 38mn
, E' v* v1 S) Z4 mBit rate mode                            : Constant
& ~' ]3 C0 p- l6 `0 XBit rate                                 : 384 Kbps
9 ^; ?! [7 {8 T8 D8 F) tChannel(s)                               : 6 channels
! S6 _5 @. @* d/ MChannel positions                        : Front: L C R, Side: L R, LFE3 r9 h! F# N3 O- D
Sampling rate                            : 48.0 KHz! @+ w3 g4 e7 H( y8 H
Bit depth                                : 16 bits/ j" q0 K! j4 s/ p# h! v
Compression mode                         : Lossy- F' \3 R% i2 K9 {& }
Stream size                              : 270 MiB (9%)" L$ \# [- D  g: ?# t: g) {
Title                                    : Phat.Girlz.2006.720p.WEB-DL.DD5.1.H264-FGT
9 m' Z) J* q: y0 X# j& A( x2 nLanguage                                 : English
, S& u! ]& [& F6 J5 Q7 LDefault                                  : Yes9 z$ u! S3 T) H' V4 S; L
Forced                                   : No8 l  w8 k2 Z8 n% E6 t3 q& A
Text- t* F, _! X: V& w3 U
ID                                       : 30 n8 a; ?, V$ ^9 c0 B
Format                                   : UTF-8, n  f' P  Y2 w$ z6 G+ p+ z: g, d
Codec ID                                 : S_TEXT/UTF8
+ e8 ]' ~( a. U+ MCodec ID/Info                            : UTF-8 Plain Text
- s# g0 d3 T/ ]6 `Language                                 : English, {( W/ ?: L# V5 Q; y% n& y, N, x4 t
Default                                  : Yes
; Z- A) k) Y" `7 d6 X# eForced                                   : No- j& ?, I+ O& |4 |6 O2 x5 m

1 R5 A/ y7 D7 t
5 F, H& \+ W/ D! A" p3 s3 w1 g6 K6 U

" c# ^3 ?9 e! w# \$ e; Q
. ?2 c6 H  J) n1 f7 @! y/ i% v; X1 T1 ?
9 Q/ B, {* E" T% T* @* a8 U
# y1 [7 Q( H! ?8 k/ i) e' D
/ `" v+ b* O  a, S* I

0 S- a) F, R5 J+ i7 i" L8 |0 `' W6 u' `* G* c
* q6 q5 @$ w9 y
, T! s% A$ N9 I. F; I

7 t5 t) O/ Z; E$ @5 @
- u$ w; z; Y! _1 \" N7 e                                       " U  M  ]- d! I9 f$ V' G. L
8 r& `( }3 \9 q3 l
: Q7 l3 ?, k: H0 d- D6 s1 _+ c" C0 B
' O4 F1 ]& ~9 y  f( X
) m' g3 u0 ~' V# G5 [/ l

  \' i* T3 T7 d4 Z8 |& [
6 a! y8 g6 w0 J0 F

Phat.Girlz.2006.720p.WEB-DL.DD5.1.H264-FGT.torrent(60.48 KB)

附件描述:
免责声明:本站所有资源均为网友上传,仅供测试宽带所用,严禁用于商业用途,否则产生的一切后果将由您自己承担!本站将不对本站的资源负任何法律责任!如支持作品,请购买正版!
下载说明:下载工具推荐使用[115网盘][qBittorrent][uTorrent]下载。

本地下载 点击下载

共收到 0 条回复
回帖
B Color Image Link Quote Code Smilies
Command + Enter