蝴蝶梦/丽贝卡/蝴蝶春梦 Rebecca.1940.1080p.BluRay.x264.DTS-FGT 15.09GB

作者:高清资源发布员 · 发布时间:2015-06-11 · 阅读 10 次 · 回复 0 次 支持(0) 收藏(0) 回复
108
✔资源类型:BD-1080P   ✔电影年份:更 早   ✔电影地区:欧美   ✔电影分类:悬疑   ✔字幕类型:✔标签类型: 
?
" J) S3 t+ L- B# j7 H
3 p. T: R, P& b
& S. d+ h. B: o- m译  名 蝴蝶梦/丽贝卡/蝴蝶春梦
$ \  F- p$ _: c片  名 Rebecca
( F# \6 ~% s& k) Y年  代 19406 Y6 v, F+ W7 e- ]! F3 s
国  家 美国
" v5 {. O0 c+ B, }4 \0 X类  别 剧情/悬疑
& u  `, S6 L+ U& M- [3 [9 V9 B语  言 英语3 [! O% y2 U( V' B5 g
上映日期 1940-03-27
, ^' S; M) L) J9 [8 J) [# @IMDb评分  8.2/10 from 76,785 users% K5 d5 w8 G: m5 N
IMDb链接  http://www.imdb.com/title/tt0032976/. y0 _, ^! ?$ W0 r
豆瓣评分 8.2/10 from 26,711 users6 Q' r7 S0 j( B9 e/ D: g4 w
豆瓣链接 http://movie.douban.com/subject/1293824/4 n* Z4 ]3 Q! Y8 f3 i
片  长 130 分钟( Q- \) F- I( i
导  演 阿尔弗雷德·希区柯克 Alfred Hitchcock
4 V+ M+ w) ^6 d7 r- D5 u8 f' W主  演 琼·芳登 Joan Fontaine# D# ^# @1 _# G! _8 _
      劳伦斯·奥利弗 Laurence Olivier
/ \: {5 ?) Y+ ~      乔治·桑德斯 George Sanders
) d( o' g' w! O0 V3 I5 E- b3 B      朱迪丝·安德森 Judith Anderson
3 s) j# y; i% r. G      尼格尔·布鲁斯 Nigel Bruce  [9 ^( g  @+ M1 k" O: Q0 \: i1 V2 l
简  介0 o- L/ U" X7 X: c9 Z
  年轻女子(琼·芳登 Joan Fontaine 饰)初遇曼德利主人德文特(劳伦斯·奥利弗 Laurence Olivier 饰)是在海边的悬崖边上。她以为德文特要跳海自尽,大叫一声,让德文特生气不已。然而,接下来的二人相识继而相知的经历让他们堕入爱河,结为伉俪,女子成为了曼德利庄园的女主人。* a2 p% J# h! T# d: X* K
  幸福的生活眼看就要铺开,这个新婚妻子却遭遇到了阴森的“寒流”。她发现这个庄园到处可见德文特前妻丽贝卡的影子,她的名字,在家具留下痕迹,更令新婚妻子不安的是,管家丹佛斯太太,更是念念不忘丽贝卡,对这个新来的主人充满仇恨。就连丈夫德文特,也不愿意解释这一切,仿佛他的内心还有旧情。0 W+ Z% G* ]5 ~- b( x. B
  丽贝卡犹如梦魇般弥漫在曼德利庄园,事情开始变得越来越复杂。  {9 B5 D/ }! Z' x
获奖情况/ e! l! u4 _3 I9 z' f* p1 V) c
  第13届奥斯卡金像奖 (1941)
$ F8 f! e& F8 z/ S$ G, ~3 D5 J  最佳影片
) H7 k$ m3 k- ~' m  最佳导演(提名) 阿尔弗雷德·希区柯克9 T! M3 a. z) @' X2 f+ i" C
  最佳男主角(提名) 劳伦斯·奥利弗: _: A- z7 K0 w  |
  最佳女主角(提名) 琼·芳登
$ z; |, r  B9 q% q& t/ \3 G' r  最佳女配角(提名) 朱迪丝·安德森! a7 c) }% k$ u1 H$ _
  最佳编剧(提名) 罗伯特·E·舍伍德 / Joan Harrison
3 j3 {6 a3 s* I5 q+ m  黑白片最佳摄影 乔治·巴恩斯
+ C! d& N8 @* d  最佳剪辑(提名) Hal C. Kern. K5 g: b, E" F+ W
  最佳特效(提名) Jack Cosgrove / Arthur Johns* M" c/ V7 Y; F2 `
  黑白片最佳艺术指导(提名) 莱尔·R·惠勒
) ]& s. w% [' H3 l$ ]/ O  最佳原创配乐(提名) 弗朗茨·沃克斯曼- u9 o* W0 M- i; x
Video
  ~6 N5 i8 o1 `2 s7 E9 Y# F! U9 rID                                       : 1+ A$ j1 K! |1 s
Format                                   : AVC$ n5 P) i% Q  a$ s
Format/Info                              : Advanced Video Codec( N3 @# [7 l% r" Z$ z) q
Format profile                           : [email protected]
5 O: t: L" |/ o, W: ]+ S. hFormat settings, CABAC                   : Yes
/ S1 }/ y$ e/ G4 ~% k1 c! MFormat settings, ReFrames                : 5 frames
5 U7 s. i8 O6 {: r& rCodec ID                                 : V_MPEG4/ISO/AVC
, l! V, ?# M; F4 `& R6 SDuration                                 : 2h 10mn
. l( x6 J( |  W; wBit rate                                 : 15.0 Mbps- D- t) B. Y; ~, ~# s. y
Width                                    : 1 480 pixels
$ w- w* h/ p' `. SHeight                                   : 1 080 pixels
) w- K% g; K, s7 `. MDisplay aspect ratio                     : 1.370
: ]5 L/ g( @' A. g- M7 OFrame rate mode                          : Constant
5 M& R* ]  n0 v2 I: w$ W* ~# [+ qFrame rate                               : 23.976 fps
* b. j; R$ V' m2 gColor space                              : YUV# G& S  r. G8 E- T; g$ ?' z8 f% Q1 J
Chroma subsampling                       : 4:2:02 B) G3 F9 X4 O- r" y! P2 ?
Bit depth                                : 8 bits
( E; Y: I8 ]( v/ v8 JScan type                                : Progressive' k& y* b* a8 x) t' r! R! n. f
Bits/(Pixel*Frame)                       : 0.391
0 a' n4 d/ a9 {Stream size                              : 13.4 GiB (89%)  h0 E" p6 P6 G4 p; W$ E
Writing library                          : x264 core 142 r2431+42 c69a006 tMod [[email protected] X86_64]& y! K0 L/ H* z7 T' T, c) r9 E
Encoding settings                        : cabac=1 / ref=5 / deblock=1:-3:-3 / analyse=0x3:0x133 / me=umh / subme=11 / psy=1 / fade_compensate=0.00 / psy_rd=1.10:0.25 / mixed_ref=1 / me_range=64 / chroma_me=1 / trellis=2 / 8x8dct=1 / cqm=0 / deadzone=21,11 / fast_pskip=0 / chroma_qp_offset=-4 / threads=12 / lookahead_threads=3 / sliced_threads=0 / nr=0 / decimate=1 / interlaced=0 / bluray_compat=0 / constrained_intra=0 / fgo=0 / bframes=16 / b_pyramid=2 / b_adapt=2 / b_bias=0 / direct=3 / weightb=1 / open_gop=0 / weightp=2 / keyint=240 / keyint_min=24 / scenecut=40 / intra_refresh=0 / rc_lookahead=180 / rc=2pass / mbtree=1 / bitrate=15000 / ratetol=1.0 / qcomp=0.60 / qpmin=0:0:0 / qpmax=69:69:69 / qpstep=4 / cplxblur=20.0 / qblur=0.5 / ip_ratio=1.40 / aq=2:0.90 / aq-sensitivity=10.00 / aq-factor=1.00:1.00:1.00 / aq2=0 / aq3=0
( W' P+ ]; p* J; eDefault                                  : Yes! Q) N) K% `: ~( x4 H! K& V
Forced                                   : No0 g5 x% N7 }1 ]% p! ^7 B" I
Audio7 ^  A! i5 K7 P1 A, l: z
ID                                       : 2+ b4 j6 }; w7 }# e6 U2 _' j
Format                                   : DTS
+ o% b; y! T: o! \3 P5 JFormat/Info                              : Digital Theater Systems5 N7 c4 Y  w2 r
Mode                                     : 16
: z* B' M- h- N9 D& ?Format settings, Endianness              : Big" n6 h7 J" L5 S% s
Codec ID                                 : A_DTS3 H0 S7 g* P! _# y# ]9 h+ m, E% v
Duration                                 : 2h 10mn
, X' l' }/ Q! Q; QBit rate mode                            : Constant, V) z$ R0 ^5 J9 m7 p1 G1 F
Bit rate                                 : 1 509 Kbps1 M' x5 N6 Y( ~/ c  Y  ^" |" M
Channel(s)                               : 2 channels5 O( m5 w! X& V; k; |$ `
Channel positions                        : Front: L R+ V7 B- J! K8 r8 I" D
Sampling rate                            : 48.0 KHz( S8 y- H4 J! b
Bit depth                                : 24 bits
. i5 z' }6 [: x3 ^4 I  Y, GCompression mode                         : Lossy8 ^% |0 j$ ~# U% o; u
Stream size                              : 1.38 GiB (9%)" ^4 F9 O2 j7 N; w
Language                                 : English1 ?" N. h8 _& \; E. a- I" K5 n
Default                                  : Yes
" O# m! y0 y+ n4 @Forced                                   : No
& E. ]; O& C# Q% a- nText
; o! W+ }& L6 aID                                       : 3
) p, W  C, T& N' h0 @- e7 H8 ?. ?8 X' n/ pFormat                                   : PGS0 a4 x$ C; _( _4 n. V" d
Muxing mode                              : zlib
8 i: P1 d$ c' D) {# ^Codec ID                                 : S_HDMV/PGS
6 s6 k, b$ e) I, N7 _+ ]Codec ID/Info                            : Picture based subtitle format used on BDs/HD-DVDs
. \: A" q7 g# W0 jLanguage                                 : English
% D0 R% K" f% A4 P9 U  d) IDefault                                  : No# h  p: D  n" A7 L
Forced                                   : No
/ }4 x, y! D& T$ n* UMenu3 o7 f5 B% [& m6 e* G
00:00:00.000                             : en:00:00:00.0001 f1 |+ q, n1 f+ p% N% P& d
00:01:46.648                             : en:00:01:46.648
0 v: j9 [! I3 s( R00:03:40.094                             : en:00:03:40.0949 `+ x% C! A0 D
00:07:51.804                             : en:00:07:51.804& P7 v7 x4 A# R6 e/ ^: H
00:12:32.501                             : en:00:12:32.5016 ?/ c: q; c1 y! e
00:15:53.619                             : en:00:15:53.619
  U0 _, ^; B+ T) z. U3 B1 H; E6 c00:18:22.101                             : en:00:18:22.101
$ T# U7 Z  M) m- w! a+ D- _00:20:46.078                             : en:00:20:46.078
' ~' m# ]% g& K7 L( z6 e  [00:28:20.990                             : en:00:28:20.990. ^& s  J5 Q: g! a. \1 F
00:31:08.658                             : en:00:31:08.658: f( O5 O8 u$ k( i7 P. P3 I1 Z
00:35:01.641                             : en:00:35:01.641+ |! y2 t! P4 p4 G$ E. r* H
00:41:46.795                             : en:00:41:46.795, U. D9 X* t! N
00:47:05.906                             : en:00:47:05.906
- y8 L! W/ y& y" t- x00:51:39.763                             : en:00:51:39.763. I3 a. h3 b. U) s5 ^
00:55:42.672                             : en:00:55:42.6722 t, K2 V2 b( Z' Y; g  L
01:02:18.985                             : en:01:02:18.9852 P" _1 V' P3 H, s4 J
01:06:46.836                             : en:01:06:46.836
! Z- h  z2 v4 G( x4 k( R01:13:18.227                             : en:01:13:18.227% q; Q  Y* X0 p( W2 \
01:17:43.450                             : en:01:17:43.450
; P  w2 s. i* x5 Z, E1 N5 O01:23:58.283                             : en:01:23:58.283. q5 {" Y/ h  ?# N
01:26:46.242                             : en:01:26:46.242! |. G! G7 a& s5 U) d
01:39:29.254                             : en:01:39:29.254
) o  P* |, g. n4 T4 b3 e01:41:55.692                             : en:01:41:55.692
' Q7 s6 h/ [& I4 P$ q3 m$ L01:44:49.950                             : en:01:44:49.950
' _; ~0 W+ O: v1 `5 o# o. ]9 Y01:49:26.017                             : en:01:49:26.017
' I4 y& ~9 ^# M: c7 C01:53:40.980                             : en:01:53:40.980' [$ u/ O% j7 j  D" K9 y
02:00:59.752                             : en:02:00:59.752
) C. A5 L8 ]! u/ b. d. f" q02:07:09.038                             : en:02:07:09.038$ o6 q* `1 ~; K% b( }" a/ K$ A
9 l0 Z# `! q1 x% m% [; Z) Q/ S
# E8 h! p! V6 G: _* H3 u; Y

3 x$ o1 ?7 D/ J/ p; B: I* x3 ^
$ N8 m4 t' m* m  \; T. Q) Z6 g$ ~& S# z7 y7 g3 K! ]
" z( X8 J9 [2 \' l0 f' m: l" Y, D
7 v- b; }4 Y4 o& g
2 c) r) |4 G$ A  `
. }7 B! p- H* `8 H9 {4 g$ @. @

" u( ?" h6 d; X4 f" _( i! h
/ L. L7 O6 q- N0 D$ {7 m( k$ T' _9 h& Z2 J) ^+ X: H7 C7 m
; E5 C7 a8 Y9 |8 J
1 r0 e  a" K' S+ ]9 {, Z* U
# t; e0 i7 X/ n- `
                                       5 M, u) h* }" p1 _7 n

$ a5 B  J& V7 M! c2 P& d
- Y2 w+ a2 L3 ?4 v+ B* _% z+ ?
( \" R2 \2 l. g  u8 I' h! ~0 Z( ]

% q* w& x% v  {6 c" b" c
& D3 J0 Q! R, P. |% U, l

Rebecca.1940.1080p.BluRay.x264.DTS-FGT.torrent(76.02 KB)

附件描述:
免责声明:本站所有资源均为网友上传,仅供测试宽带所用,严禁用于商业用途,否则产生的一切后果将由您自己承担!本站将不对本站的资源负任何法律责任!如支持作品,请购买正版!
下载说明:下载工具推荐使用[115网盘][qBittorrent][uTorrent]下载。

本地下载 点击下载

共收到 0 条回复
回帖
B Color Image Link Quote Code Smilies
Command + Enter