还我河山 American.Guerrilla.in.the.Philippines.1950.720p.WEBRip.DD2.0.x264-SEV 2.99GB

作者:高清资源发布员 · 发布时间:2016-11-05 · 阅读 12 次 · 回复 0 次 支持(0) 收藏(0) 回复
108
✔资源类型:WEB-720P   ✔电影年份:更 早   ✔电影地区:欧美   ✔电影分类:剧情   ✔字幕类型:✔标签类型: 

4 J2 F2 r. ?+ @& N* N3 W8 B, u+ \% q* `0 Y3 v) z$ d6 k
译  名 还我河山
  _/ X7 r0 ]* w% B2 n片  名 American Guerrilla in the Philippines! Y3 H2 X' p. @- H8 E
年  代 1950: R$ m! X3 y" N8 ?" I# `
国  家 美国
; r- V2 o8 ], V+ M: [4 t( a类  别 剧情/战争
1 v8 A# g+ @9 w1 A  ]" E8 \语  言 英语
/ v2 r/ p6 |  C! y上映日期 1950-11-08
7 T! }( e: z: p9 n  a/ g  VIMDb评分  6.1/10 from 684 users
7 j% U: _7 R0 _* `IMDb链接  http://www.imdb.com/title/tt0042195/( a* j% S8 Q6 A; W8 |
豆瓣评分 0/10 from 8 users; U* v3 L8 v9 a4 c; l. Y  u+ b) d
豆瓣链接 https://movie.douban.com/subject/2212948/
* d" n( g, T2 K7 |7 {+ |& Z片  长 105 分钟
8 e# U: ^& ~" i4 V0 X导  演 弗里茨·朗 Fritz Lang4 h: d" I" n! m1 q9 P% t
主  演 泰隆·鲍华 Tyrone Power
9 B$ [8 K1 C5 C# a      米切林内·普雷斯利 Micheline Presle! t6 I: f/ w4 ]1 `3 v% T7 @
      汤姆·伊威尔 Tom Ewell
( R, W$ x8 V- z) H: {      Robert Patten
5 R* j2 B% p! {8 M$ U      Tommy Cook
8 \3 F1 U7 k$ t1 v$ f      Juan Torena. l' q2 w( I/ c: _) R/ D# l" k, L
      杰克·伊莱姆 Jack Elam
2 q5 U6 Z: N# C/ g4 L简  介: _/ z8 x$ K+ q( o' @/ j
  None
  1. ) b  l  k5 e- |
  2. Video
    0 W: ^& D; W$ W- T# G$ P2 G, W
  3. ID                                       : 1
    * b$ I  c1 e" Y  ^  {! W4 q/ s5 [' f
  4. Format                                   : AVC * k7 u# Z1 Y& t  U
  5. Format/Info                              : Advanced Video Codec
    7 I/ w' w0 }$ D" {: O2 X
  6. Format profile                           : [email protected] : D+ }" Y! S3 p7 z  p+ @4 l3 z
  7. Format settings, CABAC                   : Yes / r% @5 Z% ]! ]4 t: u; d
  8. Format settings, ReFrames                : 5 frames ' u/ j! O1 G' z( [3 H1 N5 Y4 M
  9. Codec ID                                 : V_MPEG4/ISO/AVC
    / y9 k+ Q) ~1 l! N
  10. Duration                                 : 1h 45mn % X1 ~$ ~) ~! f
  11. Bit rate mode                            : Variable 0 N9 y3 t+ B$ X! q
  12. Bit rate                                 : 3 851 Kbps
    ' K4 P7 r7 k+ i
  13. Maximum bit rate                         : 4 500 Kbps
    . \1 Y& ]( V" h  ]/ Y" M! M
  14. Width                                    : 960 pixels 0 S, ~: ?# ]% C2 W' u5 p5 A1 W
  15. Height                                   : 720 pixels $ ?/ m/ L2 Q% {: N+ b8 }4 Q8 V
  16. Display aspect ratio                     : 4:3 1 o/ `( u/ F8 J2 l3 A. Z
  17. Frame rate mode                          : Constant ; M& c) Y: |' l  r
  18. Frame rate                               : 23.976 (24000/1001) fps
    3 E1 \* M5 S! X0 ^
  19. Color space                              : YUV ! o& u/ j) N2 N0 [( B7 W# i
  20. Chroma subsampling                       : 4:2:0 ! x6 A7 \( C" B5 V% r% l
  21. Bit depth                                : 8 bits ) D1 j3 G# K3 e4 Z. `8 F/ w
  22. Scan type                                : Progressive
    % o" ^8 ]6 r2 X' M# d
  23. Bits/(Pixel*Frame)                       : 0.232
    8 a$ i8 F9 P$ z$ a
  24. Stream size                              : 2.83GB (94%) 5 Y. N- e  Z# I: l
  25. Title                                    : American.Guerrilla.in.the.Philippines.1950.720p.AMZN.WEBRip.DD2.0.x264-SEV
    : h* R2 U3 Z+ ]7 n0 f, N) z
  26. Writing library                          : x264 core 148 r2623 d5b2374 , N, k/ w* {5 v5 h
  27. Encoding settings                        : cabac=1 / ref=5 / deblock=1:-1:-1 / analyse=0x3:0x133 / me=umh / subme=9 / psy=1 / psy_rd=1.00:0.15 / mixed_ref=1 / me_range=24 / chroma_me=1 / trellis=2 / 8x8dct=1 / cqm=0 / deadzone=21,11 / fast_pskip=1 / chroma_qp_offset=-3 / threads=22 / lookahead_threads=3 / sliced_threads=0 / nr=150 / decimate=1 / interlaced=0 / bluray_compat=0 / constrained_intra=0 / bframes=8 / b_pyramid=2 / b_adapt=2 / b_bias=0 / direct=3 / weightb=1 / open_gop=0 / weightp=2 / keyint=120 / keyint_min=61 / scenecut=0 / intra_refresh=0 / rc_lookahead=120 / rc=crf / mbtree=1 / crf=18.0 / qcomp=0.60 / qpmin=0 / qpmax=69 / qpstep=4 / vbv_maxrate=4500 / vbv_bufsize=17500 / crf_max=0.0 / nal_hrd=vbr / filler=0 / ip_ratio=1.40 / aq=3:1.00
    + Y3 J; @: i/ W" J& U
  28. Default                                  : Yes 5 f' T. e$ i- |9 j* U- P/ \. Y
  29. Forced                                   : No
    8 n& u. p: v, Q1 y) h9 a: Z% e% Z
  30. Color range                              : Limited
    + y7 Y6 U- D# M! x) y
  31. Color primaries                          : BT.709 8 m" N1 V" {5 b" {! j5 O" o5 _
  32. Transfer characteristics                 : BT.709 0 `  M+ _0 F  D$ X, K% R% E
  33. Matrix coefficients                      : BT.709
    ) ^8 ?' q% i. p* ~4 b+ V0 R

  34. ) C  J# U% x+ w& s6 q0 T" {
  35. Audio 8 v3 n( {$ K* D8 g* F5 f
  36. ID                                       : 2 : W/ D. c" V! |1 @- K
  37. Format                                   : E-AC-3
    - G' z+ u# t' G) H/ d) W
  38. Format/Info                              : Audio Coding 3 ( x  M7 @9 `( S
  39. Format settings, Endianness              : Big # |- I& E: u1 s  H1 L
  40. Codec ID                                 : A_EAC3
      m3 n; o5 w/ s' b
  41. Duration                                 : 1h 45mn
    ; [- O3 [3 B4 M6 p3 c
  42. Bit rate mode                            : Constant
    9 m. d4 k- M9 v. }# `
  43. Bit rate                                 : 224 Kbps
    4 y, G! ~6 Y" H# i7 U5 ]' V
  44. Channel(s)                               : 2 channels ( L) z. u. R8 V+ i
  45. Channel positions                        : Front: L R 3 C5 `  R% S3 @/ F" _
  46. Sampling rate                            : 48.0 KHz
    2 w: @9 U8 M; Q* d
  47. Frame rate                               : 187.500 fps (256 spf)
    - d3 p' s! p% R3 S, i9 B
  48. Compression mode                         : Lossy
    ( d) n& V( M& v, B; E/ h% Q
  49. Stream size                              : 168 MiB (5%)
    5 v$ X3 g& B6 r0 r, X
  50. Title                                    : English 9 \7 v/ ?. E7 V& z% h  G+ l5 w
  51. Language                                 : English
    6 a- o* U3 W0 s+ |8 K
  52. Default                                  : Yes
    # m  n2 A. x1 K/ y' S, r
  53. Forced                                   : No
    2 ]) S1 i; P1 a" B2 t6 ?

  54. / p! f. }( g& [( X2 j
  55. Text #1 " [& E2 r% h4 P; D9 t' Y7 x
  56. ID                                       : 3 ; P* r+ H- D, K1 Z! c
  57. Format                                   : UTF-8 5 D3 u7 N. s- B& w- i/ o$ h6 z
  58. Codec ID                                 : S_TEXT/UTF8 " K# m- M# V% o) `: v* o! F
  59. Codec ID/Info                            : UTF-8 Plain Text 6 t, V# \- r5 s2 d$ a) W
  60. Duration                                 : 1h 41mn % Z" d1 H4 t0 J; N0 f
  61. Bit rate                                 : 62 bps & n; a2 Z7 E# a4 p6 t+ R8 [
  62. Count of elements                        : 1403 1 W3 @+ D7 H& w2 s
  63. Stream size                              : 46.4 KiB (0%) ) H, h: m3 o& L+ Y: A. o3 R
  64. Language                                 : English " t7 p1 u0 d2 {; f! X: p
  65. Default                                  : No , F+ z% j3 P0 G! A
  66. Forced                                   : No
    8 p; {3 I% Z1 J
  67. * ~4 _: l2 N; G/ w6 ]. A+ ~
  68. Text #2
    $ h$ t2 J" s1 l
  69. ID                                       : 4
    , m8 B2 b  P+ \
  70. Format                                   : UTF-8 5 x$ x. J0 \% }0 z
  71. Codec ID                                 : S_TEXT/UTF8
    , y& A- P" t0 x6 F
  72. Codec ID/Info                            : UTF-8 Plain Text 2 Z( u5 H# A+ ^  m( b
  73. Duration                                 : 1h 42mn . A& ~8 o- _! V% j$ x+ e2 R# o
  74. Bit rate                                 : 64 bps # K: L4 ?7 D3 e: @! h3 q  r
  75. Count of elements                        : 1495 ' _/ a! S' o8 g1 D' k. l
  76. Stream size                              : 48.2 KiB (0%) : K- M& D( I6 T5 r, {
  77. Title                                    : SDH ) K4 M2 ]5 b  v: a6 L6 N
  78. Language                                 : English . X( d) |% S# {+ U
  79. Default                                  : No + }3 ?% I9 q; P# _, S* l
  80. Forced                                   : No
    ( G: Y: M, A! M) _  _  p+ I

  81. . ]$ @% B5 V% B" Z8 K
  82. Text #3 - D" D! F. r4 \
  83. ID                                       : 5
    6 w* q, T- V+ G
  84. Format                                   : UTF-8
    & @# H) W+ x8 J
  85. Codec ID                                 : S_TEXT/UTF8 + D/ Y: s& F9 h8 Q+ W8 I! t* W
  86. Codec ID/Info                            : UTF-8 Plain Text
    " ?- v  F! R9 z1 y% L
  87. Duration                                 : 1h 44mn
    ) @' U/ w# |* p: y2 _1 w- n$ b
  88. Bit rate                                 : 58 bps
    ) e& O1 p& z5 h/ Y  ?
  89. Count of elements                        : 1030 ! ]4 q# w* \6 u: j5 f4 ], n$ d
  90. Stream size                              : 45.1 KiB (0%)
    ; o1 u* N- Q) H$ I: J
  91. Language                                 : Spanish ; [5 X" _5 @! {- Y" R" i: M& k
  92. Default                                  : No - X# J" y- g1 [4 b7 _3 O% l- z
  93. Forced                                   : No ; o( C/ m  H, Q  k7 c
  94. ! s& g$ e6 @7 b8 Q; [
  95. Text #4
    / e, X9 {' |0 Z, o" b: e" P
  96. ID                                       : 6 & @7 c" b! y8 I2 y, t0 z8 s$ C
  97. Format                                   : UTF-8 7 j0 s$ O# M" U
  98. Codec ID                                 : S_TEXT/UTF8
    4 a3 |& d9 N! n# E) x4 G7 |  m$ q
  99. Codec ID/Info                            : UTF-8 Plain Text , ^! Q2 ~* g  m' Q% g* ~
  100. Duration                                 : 1h 44mn
    0 w, z3 l8 p& v3 E: @/ o/ M% T
  101. Bit rate                                 : 62 bps
    ' G( Y6 l! X: e4 t
  102. Count of elements                        : 1314
    % U2 ~% F, F  p& W
  103. Stream size                              : 47.9 KiB (0%) 6 C  p8 k" o, e4 m' Q
  104. Title                                    : Brazilian ! A4 M2 H+ M+ D) R
  105. Language                                 : Portuguese 0 I1 B  n  |6 Z6 q' p
  106. Default                                  : No
    9 z9 E" Y6 s% J( o- o8 t5 y$ u, j
  107. Forced                                   : No
    + B3 ~# \: }( ?4 g. X3 h

  108. 9 \6 j0 }6 B" ]0 b* b. x5 H
  109. Text #5
    9 ?( k3 ^! T: Q
  110. ID                                       : 7
    " o+ A& X) R. ~+ R' t# w: Y6 [
  111. Format                                   : UTF-8
    ) S3 _3 r8 c* ^& x2 b! x
  112. Codec ID                                 : S_TEXT/UTF8
    : d( s8 f: m- T; V6 D0 w
  113. Codec ID/Info                            : UTF-8 Plain Text
    # x" @) x, H! q6 `$ {8 y8 b1 H
  114. Duration                                 : 1h 44mn
    2 {+ M  D# o3 N2 @
  115. Bit rate                                 : 109 bps
    7 I, F0 D2 f* z/ L, o, N) T6 E7 e" v
  116. Count of elements                        : 1210 ( O3 T: ?; R4 j; P
  117. Stream size                              : 83.5 KiB (0%)
    ! P2 `( S, g% u# }9 E# v  B0 V
  118. Language                                 : Greek
      `# O7 P, W4 N8 T! _% M9 r0 A2 s
  119. Default                                  : No 4 B8 T6 ]# r6 h. \6 E/ P% X) w' G
  120. Forced                                   : No - m6 m% [4 k- r+ m
  121. - X: L: V$ b- d! m% U+ P
  122.   $ I4 ~1 \) L1 H7 W
复制代码
) `3 `: C- B5 d* z4 j
7 @4 @! @: G' ]

' _. g4 C: Z- V, U( {$ r; \
1 [7 e& B* r, ^$ n9 p$ r
; {7 n- y' N/ ?; t  q
  s& ?/ Z9 @" N  ]! W, z+ q, c$ v% C: i5 [& {0 T+ `  u* Q
8 g) w- D% }" ]) L
2 N" _4 {, n( Z  f% f8 C
' N0 y% P. L% F( {& h* b! }
# U  X- u  e, u
( g' b$ s3 o0 h2 Q0 R  @

7 l9 L5 b* Q! T0 Y+ ]5 a, q9 Y& z. @
5 y( x- b1 E! i2 p7 b- ~" Y$ Y
* w  ~. }2 }. t
  y% f% A+ ~1 J$ K
/ q3 T0 D8 b6 t0 [& J  y/ s

+ v" L# M( i7 ?& V$ K9 T

American.Guerrilla.in.the.Philippines.1950.720p.WEBRip.DD2.0.x264-SEV.torrent(60.52 KB)

附件描述:
免责声明:本站所有资源均为网友上传,仅供测试宽带所用,严禁用于商业用途,否则产生的一切后果将由您自己承担!本站将不对本站的资源负任何法律责任!如支持作品,请购买正版!
下载说明:下载工具推荐使用[115网盘][qBittorrent][uTorrent]下载。

本地下载 点击下载

共收到 0 条回复
回帖
B Color Image Link Quote Code Smilies
Command + Enter